Serie Paso a Paso 75 capitulos latino Step by Step

Aqui les dejo estos capitulos, en total son la primera temporada que es la que anda por ahi y la segunda tambien creo que ya las han posteado aqui en identi,A aparte son 32 capitulos que encontre por ahi en youtube, 2 o 3 capitulos estan en castellano los demas estan en latino, por ahora es todo lo que hay ya busque hasta por debajo de las piedras y no hay nada de nada

Step by Step (Los tuyos y los míos en España, Paso a paso en Latinoamérica) fue una sitcom de la televisión estadounidense transmitida por la cadena ABC desde el 20 de septiembre de 1991 hasta el 15 de agosto de 1997 y luego cambiada a la CBS del 19 de septiembre de 1997 al 26 de junio de 1998. El programa fue protagonizado por Patrick Duffy y Suzanne Somers.


Capturas 




Video
ID                          : 1
Format                      : AVC
Format/Info                 : Advanced Video Codec
Format profile              : [email protected]
Format settings             : CABAC / 4 Ref Frames
Format settings, CABAC      : Yes
Format settings, ReFrames   : 4 frames
Codec ID                    : V_MPEG4/ISO/AVC
Duration                    : 21 min 21 s
Bit rate                    : 509 kb/s
Width                       : 576 pixels
Height                      : 432 pixels
Display aspect ratio        : 4:3
Frame rate mode             : Constant
Frame rate                  : 29.970 (30000/1001) FPS
Color space                 : YUV
Chroma subsampling          : 4:2:0
Bit depth                   : 8 bits
Scan type                   : Progressive
Bits/(Pixel*Frame)          : 0.068
Stream size                 : 77.8 MiB (80%)
Writing library             : x264 core 142 r2409 d6b4e63
Encoding settings           : cabac=1 / ref=3 / deblock=1:0:0 / analyse=0x3:0x113 / me=hex / subme=7 / psy=1 / psy_rd=1.00:0.00 / mixed_ref=1 / me_range=16 / chroma_me=0 / trellis=1 / 8x8dct=1 / cqm=0 / deadzone=21,11 / fast_pskip=1 / chroma_qp_offset=-2 / threads=3 / lookahead_threads=1 / sliced_threads=0 / nr=0 / decimate=1 / interlaced=0 / bluray_compat=0 / constrained_intra=0 / bframes=3 / b_pyramid=2 / b_adapt=1 / b_bias=0 / direct=1 / weightb=1 / open_gop=0 / weightp=2 / keyint=300 / keyint_min=29 / scenecut=40 / intra_refresh=0 / rc_lookahead=40 / rc=crf / mbtree=1 / crf=23.0 / qcomp=0.60 / qpmin=0 / qpmax=69 / qpstep=4 / ip_ratio=1.40 / aq=1:1.00
Default                     : Yes
Forced                      : No

Audio
ID                          : 2
Format                      : MPEG Audio
Format version              : Version 1
Format profile              : Layer 3
Codec ID                    : A_MPEG/L3
Codec ID/Hint               : MP3
Duration                    : 21 min 21 s
Bit rate mode               : Constant
Bit rate                    : 112 kb/s
Channel(s)                  : 2 channels
Sampling rate               : 44.1 kHz
Compression mode            : Lossy
Stream size                 : 17.1 MiB (18%)
Default                     : Yes
Forced                      : No
 Tamaño de capitulo varia desde los 80 mb hasta los 160 mb



Servidor mega solo gestores de descarga

Temporada 1




Temporada 2 falta el capitulo 8



Capitulos varios desde la temporada 3 a la 7, no son temporadas completas si no capitulos salteados,la calidad varia ya que los grabaron en casset vhs,por ahora es todo lo que hay

descargar peliculas - descargar programas
84 Puntos Score: 8.4/10
Visitas: 2226 Favoritos: 6
Ver los usuarios que votaron...
13 Comentarios Serie Paso a Paso 75 capitulos latino Step by Step
gracias!!!!!!!!1
En la primer temporada al intentar abrir el enlace, me dice que no es válido
@cochise1 hay que usar un gestor de descargas ya sea MegaDownloader,JDownloader 2, o MiPony, asi directo no se puede
gracias por compartir estos recuerdos  
Amigo falta el capitulo 18 entre los link de la temporada 1 ya que repetistes el capitulo 20 revisa para que veas
@Backing ahi me aparecen bien
Listo amigo gracias
y yo todo engreido porque tenia como 12 capitulos en latino jajaja bajandode una +10
Para dejar un comentario Registrate! o.. eres ya usuario? Accede!
Facebook Identi