Condorito La Película (2017) / 1GB / 720p


Condorito La Película (2017) / 1GB / 720p






Video

Codec ID/Info                  : Advanced Video Coding
Duration                       : 1 h 28 min
Bit rate                       : 1 601 kb/s
Width                          : 1 280 pixels
Height                         : 720 pixels
Display aspect ratio           : 16:9
Frame rate mode                : Variable
Frame rate                     : 23.976 FPS
Minimum frame rate             : 21.413 FPS
Maximum frame rate             : 23.981 FPS
Color space                    : YUV
Chroma subsampling             : 4:2:0
Bit depth                      : 8 bits
Scan type                      : Progressive
Bits/(Pixel*Frame)             : 0.072
Stream size                    : 1 015 MiB (91%)
Writing library                : x264 core 148 r2708 86b7198

Audio
ID                             : 2
Format                         : AAC
Format/Info                    : Advanced Audio Codec
Format profile                 : LC
Codec ID                       : 40
Duration                       : 1 h 28 min
Bit rate mode                  : Variable
Bit rate                       : 160 kb/s
Channel(s)                     : 2 channels
Channel positions              : Front: L R
Sampling rate                  : 48.0 kHz
Frame rate                     : 46.875 FPS (1024 SPF)
Compression mode               : Lossy
Stream size                    : 101 MiB (9%)
Title                          : Stereo / Stereo
Language                       : Spanish









descargar peliculas - descargar programas
38 Puntos Score: 6.3/10
Visitas: 1892 Favoritos: 2
Ver los usuarios que votaron...
6 Comentarios Condorito La Película (2017) / 1GB / 720p
nadie tiene la pelicula en Blue-ray p en un MKV que al menos sea de 8mbps de britrate?
Por favor, agrega alguna Introducción. Gracias.
Cita darkhead96: Mostrar
yo igul la busuqe y solo hay las tipicas versiones de 1 a 4gb como maximo
Gracias, bajando...
Para dejar un comentario Registrate! o.. eres ya usuario? Accede!
Facebook Identi