Homeland S07E1 al 8 720p Latino

Homeland S07E1 al 8 720p Latino




Carrie Mathison se reinventa en la quinta temporada de Homeland. La protagonista de la serie de espías, interpretada por Claire Danes, ya no será una agente de Inteligencia de la CIA. Éste es uno de los (pocos) detalles que ha adelantado el showrunner de la ficción, Alex Gansa, sobre la próxima entrega. Lo ha hecho en el festival de series Paley Fest en Los Ángeles, donde también ha definido las novedades como "un pequeño teaser", según publica Deadline.

El drama de Showtime avanzará dos años y medio en el tiempo y se rodará en Europa. Gansa ha apuntado que Alemania podría ser el lugar elegido. "Probablemente en Alemania", ha explicado antes de advertir que no puede "decir una palabra más". La ficción se traslada a un nuevo continente, después de que en las temporadas anteriores los protagonistas hayan pasado por Estados Unidos, Irak o Pakistán.

Homeland S07E1 al 8 720p Latino


Video
ID                                       : 1
Format                                   : AVC
Format/Info                              : Advanced Video Codec
Format profile                           : [email protected]
Format settings, CABAC                   : Yes
Format settings, ReFrames                : 1 frame
Format settings, GOP                     : M=1, N=12
Codec ID                                 : V_MPEG4/ISO/AVC
Duration                                 : 57mn 31s
Bit rate                                 : 1 788 Kbps
Width                                    : 1 280 pixels
Height                                   : 720 pixels
Display aspect ratio                     : 16:9
Frame rate mode                          : Constant
Frame rate                               : 59.880 fps
Original frame rate                      : 59.940 fps
Color space                              : YUV
Chroma subsampling                       : 4:2:0
Bit depth                                : 8 bits
Scan type                                : Progressive
Bits/(Pixel*Frame)                       : 0.032
Stream size                              : 736 MiB (91%)
Default                                  : Yes
Forced                                   : No
Matrix coefficients                      : RGB

Audio
ID                                       : 2
Format                                   : MPEG Audio
Format version                           : Version 1
Format profile                           : Layer 3
Mode                                     : Joint stereo
Mode extension                           : MS Stereo
Codec ID                                 : A_MPEG/L3
Codec ID/Hint                            : MP3
Duration                                 : 57mn 31s
Bit rate mode                            : Constant
Bit rate                                 : 128 Kbps
Channel(s)                               : 2 channels
Sampling rate                            : 44.1 KHz
Compression mode                         : Lossy
Stream size                              : 52.7 MiB (7%)
Default                                  : Yes
Forced                                   : No


descargar peliculas - descargar programas
113 Puntos Score: 9.4/10
Visitas: 909 Favoritos: 0
Ver los usuarios que votaron...
12 Comentarios Homeland S07E1 al 8 720p Latino
Ya me tenias asustado de no saber nada mas de tus aportes de Homeland   Gracias y los LINKS SI FUNCIONAN
gracias por compartirlo, ojala se complete la serie, y ojala alguien pueda compartir de otra manera el capitulo 1 que no me funciona,
@metrogmail hola te puedo hacer una consulta? pero no es relacionado a tu post
Gracias, los estaba esperando.   x8
De casualidad tendrás la T6 y la T5 de Homeland?? La subís??
buenas todavía no tienes los capítulos que siguen en latino saludos y gracias
Buenas noches,tendras planeado terminar de subir la serie,es muy dificil de conseguir,gracias.
Muchas gracias y por aqui te recalco la pregunta, nos podras regalar mas capitulos de esta excelente tv serie, quedo a tu respuesta.
Para dejar un comentario Registrate! o.. eres ya usuario? Accede!
Facebook Identi