Strike Back T6E1 al 10 audio Latino

Strike Back T6E1 al 10 audio Latino



FICHA TÉCNICA

Título:Contraataque

SINOPSIS
La serie seguirá a la unidad antiterrorismo conocida como la “Sección 20? en su lucha contra los nuevos enemigos de Asia y Europa.

La quinta y última temporada contará con la participación de los actores Michelle Yeoh, Will Yun Lee, Adrian Paul, James Wilby, Dustin Clare, Tim McInnerny, Wolf Kahler, Andrew Pleavin, Michael McElhatton, Leo Gregory, Max Beesley, Joseph Gatt, Masa Yamaguchi,Christian Antidormi, Eliza Bennett y Mark Griffin.

Michael J. Bassett regresará como co-productor ejecutivo, director y escritor, junto con los directores Julian Holmes y Brendan Maher, y los escritores Jack Lothian, James Dormer, Richard Zajdlic, Ed Whitmore y Tim Vaughan.

Format                                   : Matroska
Format version                           : Version 2
File size                                : 797 MiB
Duration                                 : 46mn 40s
Overall bit rate                         : 2 388 Kbps
Writing application                      : Lavf51.12.1
Writing library                          : Lavf51.12.1

Video
ID                                       : 1
Format                                   : AVC
Format/Info                              : Advanced Video Codec
Format profile                           : [email protected]
Format settings, CABAC                   : Yes
Format settings, ReFrames                : 1 frame
Format settings, GOP                     : M=1, N=12
Codec ID                                 : V_MPEG4/ISO/AVC
Duration                                 : 46mn 40s
Bit rate                                 : 2 213 Kbps
Width                                    : 1 280 pixels
Height                                   : 720 pixels
Display aspect ratio                     : 16:9
Frame rate mode                          : Constant
Frame rate                               : 59.880 fps
Original frame rate                      : 59.940 fps
Color space                              : YUV
Chroma subsampling                       : 4:2:0
Bit depth                                : 8 bits
Scan type                                : Progressive
Bits/(Pixel*Frame)                       : 0.040
Stream size                              : 739 MiB (93%)
Default                                  : Yes
Forced                                   : No
Matrix coefficients                      : RGB

Audio
ID                                       : 2
Format                                   : MPEG Audio
Format version                           : Version 1
Format profile                           : Layer 3
Mode                                     : Joint stereo
Mode extension                           : MS Stereo
Codec ID                                 : A_MPEG/L3
Codec ID/Hint                            : MP3
Duration                                 : 46mn 40s
Bit rate mode                            : Constant
Bit rate                                 : 128 Kbps
Channel(s)                               : 2 channels
Sampling rate                            : 44.1 KHz
Compression mode                         : Lossy
Stream size                              : 42.7 MiB (5%)
Default                                  : Yes
Forced                                   : No

Strike Back T6E1 al 10 audio Latino


Todavía no pude conseguir el capitulo 6 hay que esperar una repetición.
descargar peliculas - descargar programas
20 Puntos Score: 10/10
Visitas: 878 Favoritos: 1
Ver los usuarios que votaron...
6 Comentarios Strike Back T6E1 al 10 audio Latino




no carga el 6º
@metrogmail me avisas porfavor cuando subas el 06 Gracias...
gracias por la actualizacion, aunque sigo sin poder descargar el 1, ojala alguien pudiera compartirlo de otra manera o enlace directo que el jdownloader no lo agarra. saludos
corrigo jeje, de esta si me agarran todos, de homeland es de la que el 1 no me ha funcionado nunca jeje saludos
falta el cap 6... por fa
¿alguna novedad?
Para dejar un comentario Registrate! o.. eres ya usuario? Accede!
Facebook Identi