Diez Forajidos (1955) [Western] [Latino] [MEGA]



Título original
Ten Wanted Men
Año
1955
Duración
80 min.
País
Estados Unidos Estados Unidos
Dirección
H. Bruce Humberstone
Guion
Kenneth Gamet (Historia: Irving Ravetch, Harriet Frank Jr.)
Música
Paul Sawtell
Fotografía
Wilfred M. Cline
Reparto
Randolph Scott,  Jocelyn Brando,  Richard Boone,  Alfonso Bedoya,  Donna Martell, Skip Homeier,  Clem Bevans,  Leo Gordon,  Minor Watson,  Lester Matthews, Tom Powers,  Dennis Weaver,  Lee Van Cleef
Productora
Columbia Pictures
Género
Western

Sinopsis
John Stewart trata de implantar la ley y el orden, sin recurrir a la violencia, en un pequeño pueblo de Arizona. Su vecino Wick Campbell no es de la misma opinión y propone contratar los servicios de un pistolero. (FILMAFFINITY)

Información
Format                           : Matroska
File size                        : 1.42 GiB
Duration                         : 1h 19mn
Overall bit rate                 : 2 550 Kbps
Encoded date                     : UTC 2018-09-15 15:29:16
Writing application              : mkvmerge v10.0.0 ('To Drown In You') 32bit
Writing library                  : libebml v1.3.4 + libmatroska v1.4.5

Video
ID                               : 1
Format                           : MPEG-4 Visual
Format profile                   : Advanced [email protected]
Format settings, BVOP            : Yes
Format settings, QPel            : Yes
Format settings, GMC             : No warppoints
Format settings, Matrix          : Default (H.263)
Codec ID                         : XVID
Codec ID/Hint                    : XviD
Duration                         : 1h 19mn
Bit rate                         : 2 179 Kbps
Width                            : 704 pixels
Height                           : 528 pixels
Display aspect ratio             : 4:3
Frame rate                       : 23.976 fps
Color space                      : YUV
Chroma subsampling               : 4:2:0
Bit depth                        : 8 bits
Scan type                        : Progressive
Compression mode                 : Lossy
Bits/(Pixel*Frame)               : 0.245
Stream size                      : 1.21 GiB (85%)
Writing library                  : XviD 1.2.1 (UTC 2008-12-04)

Audio
ID                               : 2
Format                           : MPEG Audio
Format version                   : Version 1
Format profile                   : Layer 3
Mode                             : Joint stereo
Codec ID                         : A_MPEG/L3
Codec ID/Hint                    : MP3
Duration                         : 1h 19mn
Bit rate mode                    : Constant
Bit rate                         : 320 Kbps
Channel(s)                       : 2 channels
Sampling rate                    : 48.0 KHz
Compression mode                 : Lossy
Delay relative to video          : 10s 300ms
Stream size                      : 183 MiB (13%)





MEGA:
descargar peliculas - descargar programas
108 Puntos Score: 7.2/10
Visitas: 1937 Favoritos: 4
Ver los usuarios que votaron...
10 Comentarios Diez Forajidos (1955) [Western] [Latino] [MEGA]
Gracias a Fav  
OTRO WESTERN para la coleccion!! gracias  
bajada, se agradece
Muchas gracias por este clasico!!
excelente!!!  
Por favor, agrega la Ficha Técnica de Vídeo (independiente de la información que venga en la Captura). Gracias.
gracias por subir un western , saludos  
Muchas gracias por este Western y en latino!!
no me canso de ver un buen western para el fin de semana!!!
Muchas gracias Gatochalado(Quiere decir gato loco?) -- por favor sube mas de este genero  
Para dejar un comentario Registrate! o.. eres ya usuario? Accede!
Facebook Identi