Ha Llegado Sartana (1970) [Western][Latino][MEGA]



Título original
C'è Sartana... vendi la pistola e comprati la bara
Año
1970
Duración
93 min.
País
Italia Italia
Dirección
Giuliano Carnimeo
Guion
Tito Carpi
Música
Francesco De Masi
Fotografía
Stelvio Massi
Reparto
George Hilton,  Charles Southwood,  Erika Blanc,  Piero Lulli,  Linda Sini, Nello Pazzafini,  Aldo Barberito,  Carlo Gaddi,  Marco Zuanelli,  Luciano Rossi
Productora
Colt Produzioni Cinematografiche
Género
Western | Spaghetti Western. Secuela

Sinopsis
El poderoso banquero de una población minera (Piero Lulli) con la ayuda de un grupo de bandidos, engaña continuamente a los mineros que le confían el oro encontrado fingiendo que los cargamentos son robados. Pero Sartana (George Hilton) presencia por casualidad uno de estos falsos robos, y los problemas empezarán para el ambicioso banquero. Poco después, llega al pueblo el pistolero Sabata, que también parece estar interesado en el oro. (FILMAFFINITY)

Ficha Técnica
Format                           : Matroska
File size                        : 1.30 GiB
Duration                         : 1h 32mn
Overall bit rate                 : 2 017 Kbps

Video
ID                               : 1
Format                           : AVC
Format/Info                      : Advanced Video Codec
Format profile                   : [email protected]
Format settings, CABAC           : Yes
Format settings, ReFrames        : 12 frames
Codec ID                         : V_MPEG4/ISO/AVC
Duration                         : 1h 32mn
Bit rate                         : 1 784 Kbps
Width                            : 1 280 pixels
Height                           : 544 pixels
Display aspect ratio             : 2.35:1
Frame rate                       : 23.976 fps
Color space                      : YUV
Chroma subsampling               : 4:2:0
Bit depth                        : 8 bits
Scan type                        : Progressive
Bits/(Pixel*Frame)               : 0.107
Stream size                      : 1.15 GiB (88%)
Writing library                  : x264 core 148 r2708 86b7198
Color primaries                  : BT.709-5, BT.1361, IEC 61966-2-4, SMPTE RP177
Transfer characteristics         : BT.709-5, BT.1361
Matrix coefficients              : BT.709-5, BT.1361, IEC 61966-2-4 709, SMPTE RP177

Audio
ID                               : 2
Format                           : MPEG Audio
Format version                   : Version 1
Format profile                   : Layer 3
Mode                             : Joint stereo
Codec ID                         : A_MPEG/L3
Codec ID/Hint                    : MP3
Duration                         : 1h 32mn
Bit rate mode                    : Constant
Bit rate                         : 192 Kbps
Channel(s)                       : 2 channels
Sampling rate                    : 44.1 KHz
Compression mode                 : Lossy
Delay relative to video          : -5ms
Stream size                      : 127 MiB (10%)




Mega:

descargar peliculas - descargar programas
132 Puntos Score: 8.8/10
Visitas: 1684 Favoritos: 3
Ver los usuarios que votaron...
8 Comentarios Ha Llegado Sartana (1970) [Western][Latino][MEGA]
gracias master !!!
gracias por los western , saludos  
Muchísimas gracias!!  
Muchísimas gracias
Muchas gracias.  
Muy buenos posts!

 
Porfa revisa el link que esta caído
Para dejar un comentario Registrate! o.. eres ya usuario? Accede!
Facebook Identi