Oops.. Este post tiene los enlaces eliminados!

Identi revisa las denuncias de los usuarios en busca de enlaces eliminados que no dejan descargar los archivos, este mensaje te informa que este post que estas viendo tiene los enlaces eliminados.

Usa el Buscador

Por favor, te recomendamos que uses el buscador para encontrar más alternativas.

Un gallo para Esculapio - Temporada 2 Capitulo 3

  • Categoría: Reciclaje
  • Publicado hace más de 6 meses


Trailer:


Sinopsis:
Temporada 2
6 meses después de los sucesos ocurridos durante el viaje a Termas, Nelson regresa al ámbito de Camino de Cintura para llevar adelante la venganza de Chelo Esculapio. Su plan es contactarse con Loquillo (Ariel Staltari) y viejos miembros de la banda. Sin embargo, a poco de llegar, se hace claro que el mundo del oeste cambió por completo durante su ausencia y Yiyo es el nuevo hombre fuerte del conurbano.


Detalles:
General
Complete name               : UGPE-T2C3.mp4
Format                      : MPEG-4
Format profile              : Base Media / Version 2
Codec ID                    : mp42 (mp42)
File size                   : 950 MiB
Duration                    : 50 min 30 s
Overall bit rate            : 2 630 kb/s
Codirector                  : codirector
Production studio           : studio
ContentType                 : Unknown Type
Encoded date                : UTC 2018-10-18 13:39:13
Tagged date                 : UTC 2018-10-18 13:39:13

Video
ID                          : 1
Format                      : AVC
Format/Info                 : Advanced Video Codec
Format profile              : [email protected]
Format settings             : CABAC / 2 Ref Frames
Format settings, CABAC      : Yes
Format settings, ReFrames   : 2 frames
Format settings, GOP        : M=3, N=25
Muxing mode                 : Container [email protected]
Codec ID                    : avc1
Codec ID/Info               : Advanced Video Coding
Duration                    : 50 min 30 s
Bit rate                    : 2 495 kb/s
Width                       : 1 280 pixels
Height                      : 720 pixels
Display aspect ratio        : 16:9
Frame rate mode             : Constant
Frame rate                  : 30.000 FPS
Color space                 : YUV
Chroma subsampling          : 4:2:0
Bit depth                   : 8 bits
Scan type                   : Progressive
Bits/(Pixel*Frame)          : 0.090
Stream size                 : 901 MiB (95%)
Language                    : English
Codec configuration box     : avcC

Audio
ID                          : 2
Format                      : AAC
Format/Info                 : Advanced Audio Codec
Format profile              : LC
Codec ID                    : mp4a-40-2
Duration                    : 50 min 30 s
Bit rate mode               : Constant
Bit rate                    : 128 kb/s
Channel(s)                  : 2 channels
Channel positions           : Front: L R
Sampling rate               : 44.1 kHz
Frame rate                  : 43.066 FPS (1024 SPF)
Compression mode            : Lossy
Stream size                 : 46.2 MiB (5%)
Title                       : Stereo
Language                    : English
Default                     : Yes
Alternate group             : 1



Captura:




descargar peliculas - descargar programas
10 Puntos Score: 5/10
Visitas: 295 Favoritos: 0
Ver los usuarios que votaron...
5 Comentarios Un gallo para Esculapio - Temporada 2 Capitulo 3
Che, que paso????
ya salio el 3 capitulo de la 2 temporada? no sabia, si tenes los demas de la 2 temp sublios porfa
gracias @FllorTV por las correciones
@ale207 @ofelia60 @Adrien
aqui el link con toda la temporada
https://www.identi.li/index.php?topic=519003
Para dejar un comentario Registrate! o.. eres ya usuario? Accede!
Facebook Identi